#TITLE:Elysium Plus;
#SUBTITLE:~Paradox re-edit~;
#ARTIST:Scott Brown;
#TITLETRANSLIT:;
#SUBTITLETRANSLIT:;
#ARTISTTRANSLIT:;
#CREDIT:;
#BANNER:Elysium Plus.PNG;
#BACKGROUND:Elysium Plus-bg.PNG;
#LYRICSPATH:;
#CDTITLE:Prdx.png;
#MUSIC:1-04 Elysium Plus.mp3;
#OFFSET:-0.100;
#SAMPLESTART:124.907;
#SAMPLELENGTH:12.000;
#SELECTABLE:YES;
#BPMS:0.000=175.120;
#STOPS:188.000=1.020
,249.000=1.040
,438.000=1.040
,499.000=1.020
,560.000=1.020
,685.000=1.040
,746.000=1.040
;
#BGCHANGES:;
// cache tags:
#FIRSTBEAT:16.000;
#LASTBEAT:811.000;
#SONGFILENAME:Songs/Chilean Keyboard Megapack 3/(Paradox) Elysium Plus/Elysium Plus.sm;
#HASMUSIC:1;
#HASBANNER:1;
#MUSICLENGTH:285.105;
// end cache tags

//---------------dance-single - ----------------
#NOTES:
     dance-single:
     :
     Challenge:
     11:
     0.966,1.000,0.645,0.246,0.701,1674.000,184.000,70.000,0.000,1.000:
0000
0000
0000
0000
,
0000
0000
0000
0000
,
0000
0000
0000
0000
,
0000
0000
0000
0000
,
1000
0100
0010
0100
0001
0100
0010
0100
,
1000
0001
0100
0001
0010
0001
0100
0001
,
1000
0010
0100
0010
0001
0010
0100
0010
,
0001
1000
0100
1000
0010
1000
0100
1000
,
0002
0003
2000
3000
0002
0003
2000
3000
,
0200
0300
0020
0030
0200
0300
0020
0030
,
0002
0003
0200
0300
0002
0003
0200
0300
,
0020
0030
2000
3000
0002
0003
0010
0001
,
1001
0001
1001
1000
,
1001
0001
1001
1000
,
1100
0011
1100
0011
,
2000
0000
0000
3000
,
0001
1000
0001
0100
0001
0010
0001
0100
,
0010
0000
1000
0000
0010
0000
0100
0000
0010
0000
0001
0000
0010
0000
0100
0001
,
1000
0100
1000
0010
1000
0001
1000
0010
,
0100
0000
0010
0000
0100
0000
1000
0000
0100
0000
0001
0000
0100
0000
0010
0100
,
0001
1000
0010
0001
1000
0001
1000
0001
,
0100
0000
0010
0000
1000
0000
0001
0000
0010
0000
0001
0000
0010
0000
0001
1000
,
0010
1000
0001
0010
0100
0010
0100
0010
,
0001
0010
0100
1000
0001
1000
0001
1000
,
0001
0000
1001
0000
0001
0100
0101
0000
,
1000
0000
0000
0000
1001
0000
0000
0000
0100
0000
1000
0000
1100
0000
0010
0001
,
1000
0000
0011
0000
0100
1000
1010
0000
,
0001
0000
0000
0000
1100
0000
0000
0000
0010
0000
0001
0000
0101
0000
0001
1000
,
0001
0000
1100
0000
0001
0010
1100
0000
,
0001
0000
0000
0000
0101
0000
0000
0000
0010
0000
1000
0000
0110
0000
1000
0010
,
0001
0000
0110
0000
0001
0100
1010
0000
,
2002
0000
0000
3003
,
1010
1010
1100
1100
0011
0011
0110
0110
,
1010
1010
1001
1001
0110
0110
1010
1010
,
0110
0110
1001
1001
0101
0101
1010
1010
,
0110
0110
0101
0101
0011
0011
1100
1100
,
0011
0011
0101
0101
0110
0110
1100
1100
,
0110
0110
1001
1001
0101
0101
1001
1001
,
0101
0101
1010
1010
1100
1100
0110
0110
,
1001
1001
0011
0011
0110
0110
1010
1010
,
1001
1001
0110
0110
1010
1010
1001
1001
,
0101
0101
1010
1010
1100
1100
0110
0110
,
1001
1001
0101
0101
1010
1010
0110
0110
,
1001
1001
0101
0101
1010
1010
1001
1001
,
0110
0110
0101
0101
1001
1001
1010
1010
,
0101
0101
1010
1010
0101
0101
0110
0110
,
1001
1001
0101
0101
1100
1100
0101
0101
,
1001
0000
1000
0100
0001
1000
0100
0001
,
0000
1000
0001
1000
0100
0001
0000
0001
,
0100
1000
0010
0100
0001
0010
0001
0100
,
0000
1000
0100
0010
0001
1000
0000
1000
,
0001
0010
0100
1000
0001
0010
1000
0100
,
0000
0100
1000
0010
0001
0100
0000
0100
,
0010
0001
0010
1000
0100
1000
0100
1000
,
0100
0000
1000
0000
0100
1000
0100
1000
0100
1000
0100
1000
0001
0010
0001
0010
,
0001
0010
0001
0010
0001
0000
1000
0000
0001
0000
1000
0000
0100
0000
0010
0000
,
0001
0100
0010
0100
0010
0100
0000
0100
,
0010
0001
0100
0001
0100
0001
0010
0001
,
0100
1000
0100
0010
0100
0010
0000
1000
,
0100
0001
0010
1000
0010
1000
0100
0001
,
0010
0100
1000
0010
1000
0010
0000
0001
,
0010
1000
0100
0001
0100
0001
0010
0001
,
1000
0100
1000
0000
0000
0000
0000
0000
,
0002
0000
1000
0100
0000
0010
0000
0000
,
0203
0000
0000
0001
1000
0000
0320
0100
,
0000
1030
2000
0000
0000
0001
0000
3000
,
0002
0100
0000
0000
0000
0000
0000
0000
,
2003
0000
0100
0010
3000
0200
0000
0000
,
0001
0000
0300
2000
0100
0000
3001
0020
,
0000
1000
0100
0030
0000
0002
0000
0000
,
1000
0100
0000
0000
0000
0000
0000
0003
,
0020
0000
1000
0100
0030
2000
0000
0000
,
0001
0000
3000
1000
2000
0000
0001
3002
,
0000
1000
1000
0000
0003
0200
0000
0000
,
1000
0001
0000
0000
0000
0000
0300
0000
,
2000
0000
0100
0010
0000
3002
0000
0000
,
0010
0000
0000
0023
1000
0000
0100
0100
,
0030
2000
0010
0000
0000
3002
0000
0000
,
1000
0103
0000
0000
0010
0000
0010
0010
,
0000
1000
0100
0000
0001
0100
0000
0010
,
1000
0000
0010
0001
0010
0000
0001
0001
,
0000
1000
1000
0000
0001
0001
0000
0100
,
0100
0000
1000
0001
1000
0000
0001
0001
,
0000
1000
0100
0000
0010
0001
0000
1000
,
0001
0000
0001
0001
0001
0000
1000
0010
,
0000
0001
0001
0000
1000
0100
0000
0010
,
1000
0000
0010
0100
0010
0000
1000
0100
,
0000
0010
0001
0000
1000
0100
0000
0010
,
1000
0000
0100
0010
0100
0000
0001
1000
,
0000
0100
0010
0000
1000
0001
0000
0010
,
0001
0000
1000
0001
1000
0000
0100
1000
,
0000
0010
0100
0000
0001
1000
0000
0010
,
0100
0000
0001
0000
1000
0000
0001
0000
1000
0100
1000
0100
1000
0100
1000
0100
,
1000
0100
1000
0100
1000
0100
1000
0001
0010
0001
0010
0001
0010
0001
0010
0001
,
0010
0001
0010
0001
0010
0001
0010
0001
0100
0010
1000
0001
1000
0001
1000
0010
,
0100
0010
0100
0001
1000
0001
1000
0010
0100
0010
1000
0001
0100
0010
0100
0001
,
1000
0001
1000
0100
0010
0001
0100
0010
0100
0001
1000
0010
0100
0010
1000
0100
,
1000
0100
1000
0100
0010
0001
0010
0100
1000
0001
0100
0010
1000
1000
0100
0010
,
0100
1000
0100
1000
0100
0010
0001
1000
0001
1000
0100
0010
0100
1000
0100
0010
,
0001
1000
0010
1000
0100
1000
0001
0100
0001
0100
0001
1000
0010
0100
0010
0100
,
0001
1000
0010
1000
0010
0100
0001
1000
0010
0100
0001
1000
0010
0100
0001
1000
,
0100
1000
0100
1000
0010
1000
0001
0100
0001
0100
0010
0100
0001
1000
0010
0100
,
0001
1000
0010
0100
0001
1000
0100
1000
0100
0010
0001
0100
0100
0001
0100
0010
,
1000
0001
0100
0010
1000
0100
0010
0001
0100
0010
1000
0010
0100
0010
0100
0010
,
1000
1000
0100
0010
0001
0100
0010
0100
0010
1000
0001
0100
0010
1000
0010
1000
,
0001
0100
0010
1000
1000
0100
0010
0001
0100
0010
1000
0100
0010
0001
0100
0010
,
0100
0010
0100
0001
0100
0010
1000
0100
0010
0001
0010
0100
1000
0100
1000
0100
,
0010
0001
1000
0100
0010
0001
1000
0100
0010
0001
0100
0010
1000
0100
0010
0001
,
0010
0100
1000
0010
0010
0100
0010
1000
0001
0100
0001
1000
0010
1000
0100
0010
,
0100
1000
0010
0100
0001
0010
0001
0010
1001
0000
0000
0000
1000
0000
0100
0000
,
1100
0000
0001
0000
1001
0000
1000
0100
,
0001
0000
0010
0000
1000
0000
0000
0000
1000
0001
1000
0001
1000
0000
0100
0000
,
0010
0001
0100
0000
0110
0000
0001
0010
,
1001
0100
0010
1100
0001
0000
0100
1000
,
0010
0100
0001
0010
1001
0000
1000
0100
,
0010
0000
0001
0000
0110
0000
1000
0000
0001
0010
0100
0010
1000
0000
0001
0000
,
0100
0010
1000
0100
1001
0000
0001
0010
,
0100
1000
0110
0001
1000
0000
1000
0100
,
0110
0001
0100
0010
0101
1000
0100
0010
,
1010
0000
1000
0000
0100
0000
0010
0000
0001
0100
0010
1000
0100
0000
0010
0000
,
0101
0010
1000
0100
0101
0010
0001
0100
,
0101
1000
0010
1000
0001
0100
0001
0010
,
0110
1000
0010
0100
1010
0001
0010
0100
,
0101
0000
0001
0000
0010
0000
0100
0000
1000
0010
0100
0001
0010
0000
0100
0000
,
1010
0100
0001
0010
1010
0100
1100
0000
,
1000
0100
0000
0100
0010
0000
0010
0001
,
0000
0001
0100
0000
0100
0010
0000
1000
,
0100
0000
1000
0001
0000
0001
0100
0000
,
0100
0010
0000
0010
1000
0000
0020
2030
,
3002
0203
0300
1000
0100
0000
0010
0001
,
0000
0100
0010
0000
0010
0100
0000
0001
,
1000
0000
0010
0001
0000
0100
1000
0000
,
0010
0001
0000
0100
0010
0000
2000
3200
,
0302
0203
0300
0010
0100
0000
0100
1000
,
0000
1000
0010
0000
0010
0100
0000
0010
,
0001
0000
0001
1000
0000
1000
0010
0000
,
0010
0100
0000
0100
0001
0000
0002
0203
,
0320
2030
3000
1000
0001
0000
0001
0100
,
0000
0100
0010
0000
0010
0100
0000
0001
,
0100
0000
0001
0100
0000
0100
0010
1000
,
1001
0000
1000
0100
0001
1000
0100
0001
,
0000
0100
0001
1000
0100
0001
0000
0100
,
0001
0010
0100
0010
0001
0100
0010
0001
,
0000
0010
0001
0100
0010
0001
0000
1000
,
1000
0000
0001
0010
0100
0001
0010
0100
,
0000
0010
0100
0001
0010
0100
0000
0010
,
0100
0001
1000
0001
0100
1000
0001
0100
,
0000
0001
0100
1000
0001
0100
1000
0001
,
0100
1000
0000
0001
0100
1000
0010
0001
,
1000
0010
0001
1000
0010
0001
0000
0010
,
0001
0100
0010
0001
1000
0100
0001
0010
,
1000
0010
0001
0100
0010
0001
0000
1000
,
0010
0000
0001
0010
1000
0100
0001
0010
,
0001
0100
0010
0001
0100
1000
0000
0001
,
0010
0100
1000
0010
0100
0001
0010
0001
,
0000
0100
0010
0000
0001
1000
0000
1000
,
0001
0000
0000
0000
0010
0100
0001
0010
0001
0010
0001
0100
0110
1000
0100
0010
,
0001
1000
0001
0100
0001
1000
0100
0010
0001
0100
0010
1000
0101
0010
0001
0010
,
0001
0100
0010
1000
0100
1000
0001
1000
0001
0010
0001
0100
0011
0100
1000
0100
,
0010
0001
0100
0010
1000
0100
0010
0001
0100
0010
1000
0100
0010
0001
1000
0010
,
1100
0001
0010
0100
1000
0001
1000
0010
0100
0001
0010
0100
1000
0010
0100
0001
,
0110
0001
1000
0001
0010
0100
1000
0010
0100
0010
1000
0001
0010
0100
1000
0010
,
0100
0001
0010
0100
1001
0010
0100
0010
0100
0010
1000
0100
0010
0001
1000
0010
,
0100
0001
1000
0100
0010
0001
0010
0100
1010
0001
1000
0010
0100
0001
1000
0010
,
0100
1000
0100
1000
0001
1000
0010
0100
0011
1000
0100
0010
1000
0010
1000
0100
,
0001
0100
0010
0100
0010
1000
0001
0100
0010
1000
0001
0100
0011
1000
0010
1000
,
0001
0100
0001
1000
0010
0100
0001
0010
0100
1000
0100
0010
1000
0010
1000
0100
,
1001
0010
0100
1000
0100
0010
0001
0100
0001
0100
0001
0010
0100
0010
0100
0010
,
1000
0100
0010
1000
0101
1000
0001
1000
0010
0100
0001
0100
0001
0010
1000
0010
,
0100
0001
0100
0010
1000
0100
0010
0001
1010
0100
0010
1000
0100
0001
0010
0100
,
0010
1000
0001
1000
0001
0100
0010
1000
0100
0010
0001
0010
0100
0001
1000
0001
,
0100
0010
0100
0001
1001
0000
0000
0000
0000
0000
0000
0000
0000
0000
0000
0000
,
0002
0000
1000
1000
0003
1001
0000
0000
,
2002
0000
3003
0020
0100
0000
0001
1000
,
0030
0010
0200
0000
0000
0001
0000
0000
,
0302
0100
0000
0000
0000
0000
0000
0000
,
0010
0000
2003
0100
0000
3020
0000
0000
,
1001
0000
0000
2030
0100
0000
0010
0010
,
0000
0001
3002
0000
0000
0010
0000
0000
,
1003
0200
0000
0000
0000
0000
0300
0000
,
2000
0000
0001
0020
3000
0001
0000
0000
,
1000
0000
0030
0020
1000
0000
0001
0230
,
0000
0010
0001
0000
0300
0002
0000
0000
,
1000
0010
0000
0000
0000
0000
0003
0000
,
0020
0000
1000
0100
0000
2030
0000
0000
,
0010
0000
3000
0002
0100
0003
0200
0010
,
0000
0000
1000
0000
0301
0000
0000
0000
0000
0000
0000
0000
1000
0100
0010
0001
,
0100
0010
0100
0010
1000
0100
1000
0010
0100
0001
0010
0100
1000
0010
0100
0001
,
0010
0001
0100
0010
1000
0001
0100
0010
1000
0100
0010
0001
0100
0010
0100
0001
,
0010
0001
0100
0010
1000
0100
0010
0001
0100
0010
1000
0010
0100
0001
0010
0100
,
1000
0010
0100
0001
0010
0001
0100
0010
1000
0010
0100
0001
0010
0100
1000
0010
,
0100
0001
1000
0100
0010
0001
0100
0010
0100
0001
0010
0100
1000
0100
0010
0001
,
1000
0010
0100
0001
0010
0100
0010
0001
0100
0010
0100
0001
0100
0010
1000
0100
,
0010
0001
0100
0010
1000
0100
0010
0001
1000
0100
1000
0001
0100
0001
0010
0001
,
0100
0010
1000
0100
0010
0001
0100
0010
1000
0100
0010
0100
1000
0010
0100
0001
,
0010
0001
0100
0010
1000
0100
0010
0001
0100
0010
1000
0100
1000
0010
1000
0100
,
0010
0001
0100
0010
0100
0001
0010
0100
1000
0100
0010
0001
1000
0010
0100
0001
,
0010
0100
1000
0010
0100
0001
0010
0100
1000
0010
0001
0010
1000
0100
0010
0001
,
0010
0001
0100
0010
1000
0100
0010
0001
0100
0010
0100
0001
1000
0010
0100
0001
,
0010
0100
1000
0010
0100
0001
0010
1000
0010
0001
0100
0010
1000
0100
0010
0001
,
0010
0100
1000
0010
0100
0001
0010
0100
1000
0010
0100
0001
0010
0001
0100
0010
,
1000
0100
1000
0010
1000
0001
0010
0100
1000
0010
0100
0001
1001
0000
0000
0000
,
0000
0000
0000
0000
0000
0000
1000
0000
0001
1000
0001
1000
0001
0000
0000
0000
;
